Kirjoittaja Aihe: Kubuntu 20.04 ei anna kirjoittaa Areenasta ladattua tiedostoa Windows levylle (R  (Luettu 660 kertaa)

Pontus12

  • Käyttäjä
  • Viestejä: 1493
    • Profiili
Kubuntu 20.04 ei anna kirjoittaa Areenasta ladattua mkv-tiedostoa Windows levylle. Muiden tiedostojen kirjoitus onnistuu. Lataamani mkv-tiedosto aukeaa ja toimii muuten normaalisti. Se herjaa, että levytila ei riitä, vaikka levyllä on hyvin tilaa. Missäköhän mahtaa olla vika?

Minulla oli muistaakseni kerran aikaisemminkin samankaltainen ongelma. Silloin oli kysymys kuvasta. Yritin käyttää lataamani videotiedoston oikeuksia. Ne olivat mielestäni normaalit.
« Viimeksi muokattu: 30.06.20 - klo:16.27 kirjoittanut Pontus12 »

stade5000

  • Käyttäjä
  • Viestejä: 17
    • Profiili
Eihän tuon tiedoston nimessä vain ole merkkejä, joita kohdetiedostojärjestelmä ei suostu tukemaan? Esimerkiksi ":" voi tuottaa ongelmia.

Pontus12

  • Käyttäjä
  • Viestejä: 1493
    • Profiili
 Siinä vika ilmeisesti oli. Muutin tiedoston nimen selkokieliseksi ja se kopioitui normaalisti.Tämä pitää muistaa vastaisuudessakin. Kiitos paljon!

nm

  • Käyttäjä
  • Viestejä: 13553
    • Profiili
Taisi olla samaa ongelmaa myös yle-dl:n tallenteiden kanssa huhtikuussa: https://forum.ubuntu-fi.org/index.php?topic=55226.0

Windows-yhteensopiva nimeäminen onnistuu latauksen yhteydessä vivulla --vfat:

Koodia: [Valitse]
yle-dl --vfat https://areena.yle.fi/1-50576689
Lainaus
yle-dl 20200628: Download media files from Yle Areena and Elävä Arkisto
Copyright (C) 2009-2020 Antti Ajanki <antti.ajanki@iki.fi>, license: GPLv3

Output file: Yle Uutiset_ klo 9.00-2020-06-30T09_26.mkv
frame=  151 fps=0.0 q=-1.0 size=    2057kB time=00:00:06.00 bitrate=2808.6kbits/
frame=  390 fps=345 q=-1.0 size=    6576kB time=00:00:15.56 bitrate=3462.0kbits/
frame=  592 fps=362 q=-1.0 size=   10859kB time=00:00:23.64 bitrate=3762.7kbits/

Tuolloin siis kaksoispiste ja muut hankaluuksia aiheuttavat erikoismerkit korvaantuvat alaviivalla.
« Viimeksi muokattu: 30.06.20 - klo:17.14 kirjoittanut nm »

jarmala

  • Käyttäjä
  • Viestejä: 453
    • Profiili
Tuolloin siis kaksoispiste ja muut hankaluuksia aiheuttavat erikoismerkit korvaantuvat alaviivalla.

Koskaan ollut mitään tiedostojen nimiin liittyvää ongelmaa Linuxin kanssa. Mikähän siinä on, että ihmiset haluavat jostain syystä käyttää jotain Windowsia, joka vaan ei toimi? En näe mitään syytä käyttää Windowsia. Ai niin - minähän en pelaa, muuta kuin sudokua ja miinaharavaa, jotka toimivat oikein hyvin myös puhelimeni Androidissa. Ja sekin taitaa perustua Linuxiin...
Ubuntu 18.04 LTS, Gnome Flashback Metacity, Xeon E3-1245 V2, 8 GB

jekku

  • Käyttäjä
  • Viestejä: 2361
    • Profiili
Asennekysymys, nuo tiedostonimetkin.
Minä koetan myös välttää välilyöntejä, jotkut ohjelmat ottavat ne erillisinä tiedostoniminä ;)