Kirjoittaja Aihe: Katsomon nauhoitus  (Luettu 62738 kertaa)

PeeAaa

  • Käyttäjä
  • Viestejä: 232
    • Profiili
Katsomon nauhoitus
« : 29.03.13 - klo:11.54 »
Olen asentanut katselun/talletuksen tällä skriptillä.
Koodia: [Valitse]
wget -rOasennaylemtv homelinuxpc.com/download/asennaylemtv && chmod +x asennaylemtv && ./asennaylemtv
Nyt voin katsella ja nauhoittaakin ,mutta vain areenaa. Katsomon nauhoitus kyllä alkaa ja loppuu
n 3 s. kuluttua josta ilmoitus näkyy. Käynnistin päätteessä firefoxin ja koetin ensin tallentaa
kokeeksi  vaikka emmendalia ja toiseksi heti perään duudsoneja. Tässä päätteen herjat järjestyksessä.

EMMERDALE
Koodia: [Valitse]
avconv version 0.8.5-4:0.8.5-0ubuntu0.12.04.1, Copyright (c) 2000-2012 the Libav developers
  built on Jan 24 2013 18:03:14 with gcc 4.6.3
-vcodec: No such file or directory

DUUDSONIT
Koodia: [Valitse]
    Stream #0.0: Data: [21][0][0][0] / 0x0015
    Metadata:
      variant_bitrate : 652700
    Stream #0.1: Video: h264 (Baseline), yuv420p, 512x288 [PAR 1:1 DAR 16:9], 25 tbr, 90k tbn, 50 tbc
    Metadata:
      variant_bitrate : 652700
    Stream #0.2: Audio: aac, 48000 Hz, stereo, s16
    Metadata:
      variant_bitrate : 652700
Unknown encoder 'libx264'
 

Eihän tämä iso asia ole koska katselu sentään toimii,mutta olishan se hyvä jos nauhoituskin toimisi.
Katselin ,että nuo kodeekit joihin herjat liittyy on jo asennettu.
Missähän vika piilee.

T:PeeAaa



welmar

  • Käyttäjä
  • Viestejä: 1582
    • Profiili
Katsomon nauhoitus
« Vastaus #1 : 29.03.13 - klo:16.19 »
DRM http://fi.wikipedia.org/wiki/Digitaalinen_k%C3%A4ytt%C3%B6oikeuksien_hallinta on syynä miksi Duudsonit ja Emmerdale ei näy. Netflix-desktopilla onnistuu katseleminen mutta nauhoitukseeen en osaa neuvoa.

ajaaskel

  • Palvelimen ylläpitäjä
  • Käyttäjä
  • Viestejä: 3383
    • Profiili
Katsomon nauhoitus
« Vastaus #2 : 30.03.13 - klo:12.05 »
Lainaus
Unknown encoder 'libx264'
.....nuo kodeekit joihin herjat liittyy on jo asennettu.

Mikä Ubuntuversio ?  
Taisin lukea huonosti, sehän näkyy tuolla avcon: in rivillä v12.04...

Itselläni tuo nauhoitus toimii ok mutta en heti osaa arvata puuttuuko jotain mutta tarkasta videokodekin polku, se ei taida jostain syystä löytyä vaikka on asennettu ?  Itselläni on eri version "avconv" mutta voisin laittaa tuon saman version yhteen koneeseen täällä kun ehdin.

Mitä tapahtuu jos annat päätteessä:

Koodia: [Valitse]
.menut/nauhoita_katsomo "http://www.katsomo.fi/?progId=172433"
eli tuleeko sieltä yhtään pidempää viestiä siitä lähtien kun avconv käynnistyy ?  Toimiessaan se näyttää tältä:
.
avconv version 0.8.4-4:0.8.4-0ubuntu0.12.04.1, Copyright (c) 2000-2012 the Libav developers
  built on Nov  6 2012 16:50:25 with gcc 4.6.3
[applehttp @ 0x88de240] max_analyze_duration reached
[applehttp @ 0x88de240] Estimating duration from bitrate, this may be inaccurate
Input #0, applehttp, from 'http://212.226.124.237/mtv3_vod/_definst_/mp4:2013-03-26/Emmerdale_172433_DR22WH1!172433,T5HLSM!.mp4/playlist.m3u8?secure=5ZJgMwAxpUugD3ORTEP1CoRkTRg7mi0ZifI)K2THkjPdiBZcYD1mhgY4(o9ZF0CPHTvI5x7lqodfmFP2PIzoIgRubsPfIwJi(Op0B5CTQEuvJJCRFj5tOrTnd3YiU4xV&m=-1&ae=9&ts=1364640302178':
  Duration: 00:20:28.00, start: 9.578667, bitrate: N/A
    Stream #0.0: Data: [21][0][0][0] / 0x0015
    Metadata:
      variant_bitrate : 654198
    Stream #0.1: Video: h264 (Baseline), yuv420p, 512x288 [PAR 1:1 DAR 16:9], 25 tbr, 90k tbn, 50 tbc
    Metadata:
      variant_bitrate : 654198
    Stream #0.2: Audio: aac, 48000 Hz, stereo, s16
    Metadata:
      variant_bitrate : 654198
[buffer @ 0x8b2cdc0] w:512 h:288 pixfmt:yuv420p
[libx264 @ 0x89db1e0] using SAR=1/1
[libx264 @ 0x89db1e0] using cpu capabilities: MMX2 SSE2Slow SlowCTZ
[libx264 @ 0x89db1e0] profile Main, level 2.1
[libx264 @ 0x89db1e0] 264 - core 120 r2151 a3f4407 - H.264/MPEG-4 AVC codec - Copyleft 2003-2011 - http://www.videolan.org/x264.html - options: cabac=1 ref=3 deblock=1:0:0 analyse=0x1:0x111 me=hex subme=7 psy=1 psy_rd=1.00:0.00 mixed_ref=0 me_range=16 chroma_me=1 trellis=1 8x8dct=0 cqm=0 deadzone=21,11 fast_pskip=1 chroma_qp_offset=-2 threads=3 sliced_threads=0 nr=0 decimate=1 interlaced=0 bluray_compat=0 constrained_intra=0 bframes=3 b_pyramid=0 b_adapt=1 b_bias=0 direct=1 weightb=0 open_gop=1 weightp=2 keyint=250 keyint_min=25 scenecut=40 intra_refresh=0 rc_lookahead=40 rc=crf mbtree=1 crf=23.0 qcomp=0.60 qpmin=0 qpmax=69 qpstep=4 ip_ratio=1.25 aq=1:1.00
Output #0, mp4, to '/home/arto/Videot/Katsomo/Emmerdale_172433_1.mp4':
  Metadata:
    encoder         : Lavf53.21.0
    Stream #0.0: Video: libx264, yuv420p, 512x288 [PAR 1:1 DAR 16:9], q=-1--1, 25 tbn, 25 tbc
    Metadata:
      variant_bitrate : 654198
    Stream #0.1: Audio: libfaac, 48000 Hz, stereo, s16, 200 kb/s
    Metadata:
      variant_bitrate : 654198
Stream mapping:
  Stream #0:1 -> #0:0 (h264 -> libx264)
  Stream #0:2 -> #0:1 (aac -> libfaac)
Press ctrl-c to stop encoding
frame=30451 fps= 56 q=-1.0 Lsize=   74451kB time=1218.00 bitrate= 500.7kbits/s    
video:52855kB audio:20819kB global headers:0kB muxing overhead 1.055641%
[libx264 @ 0x89db1e0] frame I:200   Avg QP:18.70  size: 17644
[libx264 @ 0x89db1e0] frame P:19082 Avg QP:23.73  size:  2374
[libx264 @ 0x89db1e0] frame B:11169 Avg QP:28.90  size:   473
[libx264 @ 0x89db1e0] consecutive B-frames: 47.5%  7.4% 10.0% 35.1%
[libx264 @ 0x89db1e0] mb I  I16..4: 28.1%  0.0% 71.9%
[libx264 @ 0x89db1e0] mb P  I16..4:  2.0%  0.0%  1.8%  P16..4: 37.0%  5.9%  3.4%  0.0%  0.0%    skip:49.9%
[libx264 @ 0x89db1e0] mb B  I16..4:  0.3%  0.0%  0.1%  B16..8: 37.5%  2.3%  0.5%  direct: 0.6%  skip:58.8%  L0:48.4% L1:47.4% BI: 4.2%
[libx264 @ 0x89db1e0] coded y,uvDC,uvAC intra: 54.8% 57.8% 28.3% inter: 12.0% 9.6% 0.8%
[libx264 @ 0x89db1e0] i16 v,h,dc,p: 42% 20% 24% 15%
[libx264 @ 0x89db1e0] i4 v,h,dc,ddl,ddr,vr,hd,vl,hu: 33% 21% 21%  4%  4%  4%  4%  4%  4%
[libx264 @ 0x89db1e0] i8c dc,h,v,p: 48% 19% 25%  8%
[libx264 @ 0x89db1e0] Weighted P-Frames: Y:0.3% UV:0.2%
[libx264 @ 0x89db1e0] ref P L0: 76.6%  7.2% 11.3%  5.0%  0.0%
[libx264 @ 0x89db1e0] ref B L0: 87.7% 12.3%
[libx264 @ 0x89db1e0] kb/s:355.47
« Viimeksi muokattu: 30.03.13 - klo:13.52 kirjoittanut ajaaskel »
Autamme ilolla ja ilmaiseksi omalla ajallamme.  Ethän vaadi, uhoa tai isottele näin saamasi palvelun johdosta.

PeeAaa

  • Käyttäjä
  • Viestejä: 232
    • Profiili
Katsomon nauhoitus
« Vastaus #3 : 30.03.13 - klo:16.59 »
Joo U12.04  32 bit käytössä. Tälläista pukkaa komennon jälkeen.

avconv version 0.8.5-4:0.8.5-0ubuntu0.12.04.1, Copyright (c) 2000-2012 the Libav developers
  built on Jan 24 2013 18:03:14 with gcc 4.6.3
[applehttp @ 0x9b1faa0] max_analyze_duration reached
[applehttp @ 0x9b1faa0] Estimating duration from bitrate, this may be inaccurate
Input #0, applehttp, from 'http://212.226.124.237/mtv3_vod/_definst_/mp4:2013-03-26/Emmerdale_172433_DR22WH1!172433,T5HLSM!.mp4/playlist.m3u8?secure=5ZJgMwAxpUugD3ORTEP1CoRkTRg7mi0ZifI)K2THkjPdiBZcYD1mhgY4(o9ZF0CPHTvI5x7lqodfmFP2PIzoIlsz32ewpUDxHWlMZ7BW)yuqh(1FqiQbeG)w0Ojy46w6&m=-1&ae=9&ts=1364654997377':
  Duration: 00:20:28.00, start: 9.578667, bitrate: N/A
    Stream #0.0: Data: [21][0][0][0] / 0x0015
    Metadata:
      variant_bitrate : 654198
    Stream #0.1: Video: h264 (Baseline), yuv420p, 512x288 [PAR 1:1 DAR 16:9], 25 tbr, 90k tbn, 50 tbc
    Metadata:
      variant_bitrate : 654198
    Stream #0.2: Audio: aac, 48000 Hz, stereo, s16
    Metadata:
      variant_bitrate : 654198
Unknown encoder 'libx264'

T:PeeAaa

Koneen speksit: Fujitsu-Siemens, A8V-MX emo, AMD Sempron 3200+,Radeon 9250, 1,5 GiB

ajaaskel

  • Palvelimen ylläpitäjä
  • Käyttäjä
  • Viestejä: 3383
    • Profiili
Katsomon nauhoitus
« Vastaus #4 : 30.03.13 - klo:18.47 »
Vie jonkin aikaa että voin tutkia, laitoin yhden koneen päivittymään 12.04 versioon.
Edit:  Meni päivitys hieman suteen: Jumi kohtaan missä olisi pitänyt myphpadmin salasana antaa, ei kelvannut mikään eikä päästänyt siitä eteenpäin.  Graafinen pääte ei enää toiminut, "oikeasta" päätteestä reboot. Käynnistys:  Kernel Panic.  Vanhemmalla kernelillä käyntiin, onnistui... Tuloksena pikku ongelma kun joutui käynnistämään uudestaan ennen kuin päivitys pääsi loppuun:  pakettihallinta lukossa.  "sudo dkpk --configure -a"  --->  ei osannut korjata, meni virheeseen.   
Katsotaan mitä tälle lopulta teen, hupeni jo 4 tuntia  >:(
« Viimeksi muokattu: 30.03.13 - klo:21.03 kirjoittanut ajaaskel »
Autamme ilolla ja ilmaiseksi omalla ajallamme.  Ethän vaadi, uhoa tai isottele näin saamasi palvelun johdosta.

salai

  • Käyttäjä
  • Viestejä: 2118
    • Profiili
Katsomon nauhoitus
« Vastaus #5 : 31.03.13 - klo:01.45 »
Minulla ei Katsomon tallennus onnistunut kuukausiin Ubuntu 12.04:ään perustuvassa Wattos 6:ssa ennen kuin asensin libavcodec-extra-53 -paketin ja muutin ajaaskelen tallennusskriptiä (~/.menut/nauhoita_katsomo) jotenkin tuollaiseksi (muistaakseni):
Koodia: [Valitse]
# ffmpeg -i $linkki -vcodec libx264 -acodec libfaac "$kokonimi".mp4
ffmpeg -i $linkki -vcodec libxvid -acodec libvo_aacenc "$kokonimi".mp4 -y # Yrittää tällä ellei "avconv" löydy
Ohjeen löysin sattumoisin jostain, eikä laatu ole tuolla kummoinen.

PeeAaa

  • Käyttäjä
  • Viestejä: 232
    • Profiili
Katsomon nauhoitus
« Vastaus #6 : 31.03.13 - klo:10.07 »
Minulla ei Katsomon tallennus onnistunut kuukausiin Ubuntu 12.04:ään perustuvassa Wattos 6:ssa ennen kuin asensin libavcodec-extra-53 -paketin ja muutin ajaaskelen tallennusskriptiä (~/.menut/nauhoita_katsomo) jotenkin tuollaiseksi (muistaakseni):
Koodia: [Valitse]
# ffmpeg -i $linkki -vcodec libx264 -acodec libfaac "$kokonimi".mp4
ffmpeg -i $linkki -vcodec libxvid -acodec libvo_aacenc "$kokonimi".mp4 -y # Yrittää tällä ellei "avconv" löydy
Ohjeen löysin sattumoisin jostain, eikä laatu ole tuolla kummoinen.


Kiitos, nyt toimii!
Laatu ei ole todellakaan kummoista ,mutta eiköhän se paremman puutteessa kuitenkin mene.
Siis asensin tuon libavcodec-extra-53 -paketin joka poisti libavcodec53 paketin. Tuon jälkeen kun
kokeilin tätä...
Koodia: [Valitse]
.menut/nauhoita_katsomo "http://www.katsomo.fi/?progId=172433"ja vaihtui tuo  Unknown encoder 'libx264'      Unknown encoder 'libfaac' erroriksi.
Tämän jälkeen kun  muutin tämän.
Koodia: [Valitse]
if [ -z "$(which avconv)" ]; then
ffmpeg -i $linkki -vcodec libx264 -acodec libvo_aacenc "$kokonimi".mp4 -y # Yrittää tällä ellei "avconv" löydy
else
avconv -i $linkki -vcodec libx264 -acodec libfaac0 "$kokonimi".mp4 -y
fi
}

Tähän.
Koodia: [Valitse]
if [ -z "$(which avconv)" ]; then
ffmpeg -i $linkki -vcodec libx264 -acodec libvo_aacenc "$kokonimi".mp4 -y # Yrittää tällä ellei "avconv" löydy
else
avconv -i $linkki -vcodec libx264 -acodec libvo_aacenc "$kokonimi".mp4 -y
fi
}
Niin rupesi toimimaan.

Ajaaskelille myös kiitos erinomaisesta ja helposta asennuohjelmasta!

T:PeeAaa
« Viimeksi muokattu: 31.03.13 - klo:10.09 kirjoittanut PeeAaa »

nm

  • Käyttäjä
  • Viestejä: 12821
    • Profiili
Katsomon nauhoitus
« Vastaus #7 : 31.03.13 - klo:14.19 »
 Stream #0:1 -> #0:0 (h264 -> libx264)
  Stream #0:2 -> #0:1 (aac -> libfaac)

Miksi muuten pakkaat avconvilla videon ja äänen uudelleen pelkän kopioinnin sijaan? Seuraako raitojen kopioinnista joku tekninen ongelma?

ajaaskel

  • Palvelimen ylläpitäjä
  • Käyttäjä
  • Viestejä: 3383
    • Profiili
Katsomon nauhoitus
« Vastaus #8 : 31.03.13 - klo:14.44 »
Mielenkiintoista, täällähän onkin edistytty sillä välin kun sain puhtaan (missä ei ole vielä mitään lisukkeita asennettu) 12.04.2 Ubuntun  käyttööni  :)
Joo, tässä 12.04: ssä sellaisenaan ei lähtenyt katsomo toimimaan.  Sen sijaan samankaltaisessa Mint 13 Cinnamon: ssa se on toiminut hyvin mutta siinä on asennettuna sen verran monenlaista muuta tavaraa että kirjanpito on vaikeaa.

Lainaus
Miksi muuten pakkaat avconvilla videon ja äänen uudelleen pelkän kopioinnin sijaan? Seuraako raitojen kopioinnista joku tekninen ongelma?

Se oli alkuaan pelkällä kopioinnilla ja toimi erittäin nopeasti silloin kun toimi mutta siinä oli jokin huteruus joka jäi silloin selvittämättä eli kiersin ongelman "quick&dirty" menetelmällä joka näytti toimivan heti stabiilisti mutta oli tietysti toiminnaltaan paljon hitaampi.  

Asiaan voisi yrittää uudestaan hakea parempaa ratkaisua ja katsoa mitä siitä seuraa.

Osui silmään tuosta "libfaac" asiasta:

http://ubuntuforums.org/showthread.php?t=2007634#2

(eli likimain: libfaac poistettu jossain vaiheessa lisensointisyistä)

Kävin katsomassa myös miten kävi Mint 14 versiossa, nauhoitus rikki siinäkin

   Unknown encoder 'libx264'

Tuo korjaantui asentamalla "libavcodec-extra-53" paketin kuten Salai tuolla kertoi. Asennus poisti samalla paketit "libavcodec53" ja "libavutils51".
Tällä tietoa ainakin Mint 13 ja 14 toimivat ok Katsomolle yllämainitulla muutoksella.  Näissä ei myöskään (vielä ?) tule "libfaac puuttuu"  -ilmoitusta.

Joutunee etsimään taas jotain ratkaisua joka toimisi muillekin.  Päätteessä pystyy kokeilemaan erilaisia vaihtoehtoja helposti, näkee heti jos alkaa tulla punaista viestiä toisen perään.  

Koodia: [Valitse]
avconv -codecs | grep -i aacnäyttää että "libfaac" on mukana Mint: ssä mutta puttuu Ubuntussa.

« Viimeksi muokattu: 31.03.13 - klo:18.51 kirjoittanut ajaaskel »
Autamme ilolla ja ilmaiseksi omalla ajallamme.  Ethän vaadi, uhoa tai isottele näin saamasi palvelun johdosta.

salai

  • Käyttäjä
  • Viestejä: 2118
    • Profiili
Katsomon nauhoitus
« Vastaus #9 : 01.04.13 - klo:10.26 »
Löytyykö tuohon joku kevyempi Katsomon streamien suora kopiointiratkaisu?

Laatuun nähden tuo nykyinen kuormittaa konetta aivan tolkuttomasti: molemmat prosessoriytimet paahtavat lähes 100 % koko vastaanoton ajan, joka näyttää tapahtuvan yhtä hitaasti kuin tavallinen katselukin.


nm

  • Käyttäjä
  • Viestejä: 12821
    • Profiili
Katsomon nauhoitus
« Vastaus #10 : 01.04.13 - klo:12.19 »
Löytyykö tuohon joku kevyempi Katsomon streamien suora kopiointiratkaisu?

Laatuun nähden tuo nykyinen kuormittaa konetta aivan tolkuttomasti: molemmat prosessoriytimet paahtavat lähes 100 % koko vastaanoton ajan, joka näyttää tapahtuvan yhtä hitaasti kuin tavallinen katselukin.

Kokeile suoraa kopiointia uudelleenpakkauksen sijaan, eli vaihda parametrien:

-vcodec libx264 -acodec libfaac

tilalle:

-vcodec copy -acodec copy

Minulla tuo tuntuu toimivan, mutta jos jotain ongelmaa ilmenee, kokeile pelkän äänen uudelleenpakkausta:

-vcodec copy -acodec libmp3lame

(Tämä esimerkki pakkaa siis äänen MP3-muotoon AAC:n sijaan, koska ffmpegissä/avconvissa ei tällä hetkellä ole kunnollista AAC-enkooderia. libmp3lamen saa toimimaan asentamalla ubuntu-restricted-extras -paketin.)

salai

  • Käyttäjä
  • Viestejä: 2118
    • Profiili
Katsomon nauhoitus
« Vastaus #11 : 01.04.13 - klo:12.43 »
Tuo "-vcodec copy -acodec copy" ei kuormita konetta yhtään ja video latautuu täydellä nopeudella, ääni ja kuva toimivat ainakin Vlc:ssä.
Vielä kun löytyisi paremmantasoinen kuva jostain.

EDIT: Täytyy kokeilla jossain tuttavan televisiossa, toimiiko tuollainen tallennettu ohjelma usb-tikulta.
« Viimeksi muokattu: 01.04.13 - klo:12.45 kirjoittanut salai »

nm

  • Käyttäjä
  • Viestejä: 12821
    • Profiili
Katsomon nauhoitus
« Vastaus #12 : 01.04.13 - klo:13.17 »
Vielä kun löytyisi paremmantasoinen kuva jostain.

DVB-kortilla/tikulla tai jonkun operaattorin IPTV-palvelusta kaappaamalla...
« Viimeksi muokattu: 01.04.13 - klo:13.20 kirjoittanut nm »

ajaaskel

  • Palvelimen ylläpitäjä
  • Käyttäjä
  • Viestejä: 3383
    • Profiili
Katsomon nauhoitus
« Vastaus #13 : 01.04.13 - klo:18.55 »
Lainaus
Miksi muuten pakkaat avconvilla videon ja äänen uudelleen pelkän kopioinnin sijaan? Seuraako raitojen kopioinnista joku tekninen ongelma?
Löysin sen minkä takia tuo "copy" oli aiemmin hylätty Katsomon nauhoituksessa:

http://forum.ubuntu-fi.org/index.php?topic=44149.msg340085#msg340085

Tuo "copy" olisi muuten kyllä paras tapa jos se ei tökkisi joissain tilanteissa.
« Viimeksi muokattu: 01.04.13 - klo:18.57 kirjoittanut ajaaskel »
Autamme ilolla ja ilmaiseksi omalla ajallamme.  Ethän vaadi, uhoa tai isottele näin saamasi palvelun johdosta.

nm

  • Käyttäjä
  • Viestejä: 12821
    • Profiili
Katsomon nauhoitus
« Vastaus #14 : 01.04.13 - klo:19.38 »
Löysin sen minkä takia tuo "copy" oli aiemmin hylätty Katsomon nauhoituksessa:

http://forum.ubuntu-fi.org/index.php?topic=44149.msg340085#msg340085

Tuo "copy" olisi muuten kyllä paras tapa jos se ei tökkisi joissain tilanteissa.

Löytyisikö joku video, jossa noin käy? Tuo vanha esimerkki ei enää ole saatavilla.

ajaaskel

  • Palvelimen ylläpitäjä
  • Käyttäjä
  • Viestejä: 3383
    • Profiili
Katsomon nauhoitus
« Vastaus #15 : 01.04.13 - klo:22.41 »
Lainaus
Löytyisikö joku video, jossa noin käy? Tuo vanha esimerkki ei enää ole saatavilla.

./.menut/nauhoita_katsomo "http://www.katsomo.fi/?progId=173093"
--2013-04-04 10:30:04--  http://m.katsomo.fi/katsomo/?progId=173093
Resolving m.katsomo.fi (m.katsomo.fi)... 176.34.225.104, 79.125.123.154
Connecting to m.katsomo.fi (m.katsomo.fi)|176.34.225.104|:80... connected.
HTTP request sent, awaiting response... 200 OK
Length: 11968 (12K) [text/html]
Saving to: `/home/arto/.menut/sivu'

100%[================================================================>] 11 968      --.-K/s   in 0,005s  

2013-04-04 10:30:04 (2,18 MB/s) - `/home/arto/.menut/sivu' saved [11968/11968]

./.menut/nauhoita_katsomo: line 57: /home/arto/.menut/menut.conf: No such file or directory
avconv version 0.8.5-4:0.8.5-0ubuntu0.12.04.1, Copyright (c) 2000-2012 the Libav developers
  built on Jan 24 2013 18:03:14 with gcc 4.6.3
[applehttp @ 0x8ab6240] max_analyze_duration reached
[applehttp @ 0x8ab6240] Estimating duration from bitrate, this may be inaccurate
Input #0, applehttp, from 'http://median3mobilevod.edgesuite.net/mtv3_vod/_definst_/mp4:2013-03-30/Smurffit_173093_DR22WH10!173093,T5HLSM!.mp4/playlist.m3u8?__gda__=1365060720_414dd102fe95b2789a7303ead9ccd40c':
  Duration: 00:23:29.00, start: 21.560000, bitrate: N/A
    Stream #0.0: Data: [21][0][0][0] / 0x0015
    Metadata:
      variant_bitrate : 653448
    Stream #0.1: Video: h264 (Baseline), yuv420p, 512x288 [PAR 1:1 DAR 16:9], 25 tbr, 90k tbn, 50 tbc
    Metadata:
      variant_bitrate : 653448
    Stream #0.2: Audio: aac, 48000 Hz, stereo, s16
    Metadata:
      variant_bitrate : 653448
Output #0, mp4, to '/home/arto/Videot/Katsomo/Smurffit_173093_1_2.mp4':
  Metadata:
    encoder         : Lavf53.21.1
    Stream #0.0: Video: libx264, yuv420p, 512x288 [PAR 1:1 DAR 16:9], q=2-31, 90k tbn, 90k tbc
    Metadata:
      variant_bitrate : 653448
    Stream #0.1: Audio: libfaac, 48000 Hz, stereo
    Metadata:
      variant_bitrate : 653448
Stream mapping:
  Stream #0:1 -> #0:0 (copy)
  Stream #0:2 -> #0:1 (copy)
Press ctrl-c to stop encoding
[mp4 @ 0x8bdbd00] Application provided invalid, non monotonically increasing dts to muxer in stream 1: 128 >= 128
av_interleaved_write_frame(): Invalid argument


* luovuttaa kokonaan tekemättä mitään *
« Viimeksi muokattu: 04.04.13 - klo:11.34 kirjoittanut ajaaskel »
Autamme ilolla ja ilmaiseksi omalla ajallamme.  Ethän vaadi, uhoa tai isottele näin saamasi palvelun johdosta.

ajaaskel

  • Palvelimen ylläpitäjä
  • Käyttäjä
  • Viestejä: 3383
    • Profiili
Katsomon nauhoitus
« Vastaus #16 : 04.04.13 - klo:11.17 »
Lainaus
..... kokeile pelkän äänen uudelleenpakkausta:

-vcodec copy -acodec libmp3lame

libmp3lame tai libfaac:  "avconv" antaa virheitä jonon mutta ei luovuta vaan tekee loppuun asti ja toimivan tiedoston. Samat virheviestit molemmilla.

Press ctrl-c to stop encoding
Continuity check failed for pid 0 expected 2 got 328 bitrate= 874.9kbits/s    
[mpegts @ 0x93858e0] Continuity check failed for pid 258 expected 15 got 5
[mpegts @ 0x93858e0] Continuity check failed for pid 259 expected 6 got 14
Continuity check failed for pid 0 expected 9 got 0.24 bitrate= 715.7kbits/s    
[mpegts @ 0x93858e0] Continuity check failed for pid 259 expected 4 got 1
Continuity check failed for pid 0 expected 1 got 0.84 bitrate= 704.9kbits/s    
[mpegts @ 0x93858e0] Continuity check failed for pid 258 expected 3 got 1
Continuity check failed for pid 0 expected 2 got 31.72 bitrate= 704.3kbits/s    
[mpegts @ 0x93858e0] Continuity check failed for pid 258 expected 13 got 4
[mpegts @ 0x93858e0] Continuity check failed for pid 259 expected 11 got 1
Continuity check failed for pid 0 expected 5 got 17.92 bitrate= 694.4kbits/s    
[mpegts @ 0x93858e0] Continuity check failed for pid 258 expected 2 got 3
[mpegts @ 0x93858e0] Continuity check failed for pid 259 expected 13 got 1
Continuity check failed for pid 0 expected 2 got 14.24 bitrate= 694.3kbits/s    
[mpegts @ 0x93858e0] Continuity check failed for pid 258 expected 12 got 0
[mpegts @ 0x93858e0] Continuity check failed for pid 259 expected 13 got 14
Continuity check failed for pid 0 expected 13 got 0.30 bitrate= 704.9kbits/s    
[mpegts @ 0x93858e0] Continuity check failed for pid 258 expected 10 got 1
[mpegts @ 0x93858e0] Continuity check failed for pid 259 expected 11 got 1
Continuity check failed for pid 0 expected 14 got 1572 bitrate= 699.9kbits/s    
[mpegts @ 0x93858e0] Continuity check failed for pid 258 expected 2 got 14
Continuity check failed for pid 259 expected 1 got 115 bitrate= 698.9kbits/s    
Continuity check failed for pid 0 expected 7 got 14.28 bitrate= 695.5kbits/s    
[mpegts @ 0x93858e0] Continuity check failed for pid 258 expected 8 got 2
[mpegts @ 0x93858e0] Continuity check failed for pid 259 expected 4 got 15
Continuity check failed for pid 0 expected 15 got 0.80 bitrate= 694.4kbits/s    
[mpegts @ 0x93858e0] Continuity check failed for pid 258 expected 9 got 1
[mpegts @ 0x93858e0] Continuity check failed for pid 259 expected 13 got 1
Continuity check failed for pid 0 expected 1 got 95.72 bitrate= 693.7kbits/s    
[mpegts @ 0x93858e0] Continuity check failed for pid 258 expected 0 got 14
[mpegts @ 0x93858e0] Continuity check failed for pid 259 expected 15 got 0
Continuity check failed for pid 0 expected 2 got 037.00 bitrate= 693.3kbits/s    
[mpegts @ 0x93858e0] Continuity check failed for pid 258 expected 8 got 1
Continuity check failed for pid 0 expected 11 got 12.60 bitrate= 694.2kbits/s    
[mpegts @ 0x93858e0] Continuity check failed for pid 258 expected 6 got 8
Continuity check failed for pid 259 expected 3 got 2.90 bitrate= 694.8kbits/s    
Continuity check failed for pid 0 expected 0 got 129.96 bitrate= 694.8kbits/s    
[mpegts @ 0x93858e0] Continuity check failed for pid 258 expected 0 got 14
[mpegts @ 0x93858e0] Continuity check failed for pid 259 expected 14 got 1
Continuity check failed for pid 0 expected 1 got 052.88 bitrate= 692.9kbits/s    
[mpegts @ 0x93858e0] Continuity check failed for pid 258 expected 9 got 1
[mpegts @ 0x93858e0] Continuity check failed for pid 259 expected 12 got 1
frame=36510 fps=377 q=-1.0 Lsize=  123933kB time=1460.36 bitrate= 695.2kbits/s    
video:89178kB audio:34230kB global headers:0kB muxing overhead 0.426319%


"libfaac" tekee hieman pienemmän tiedoston.  Kokeessani Mint13 missä "libfaac" toimii edelleen.  Saiskohan tuota "avconv": ia jotenkin sitkeämmäksi "copy": n kanssa...?
« Viimeksi muokattu: 04.04.13 - klo:11.39 kirjoittanut ajaaskel »
Autamme ilolla ja ilmaiseksi omalla ajallamme.  Ethän vaadi, uhoa tai isottele näin saamasi palvelun johdosta.

nm

  • Käyttäjä
  • Viestejä: 12821
    • Profiili
Vs: Katsomon nauhoitus
« Vastaus #17 : 04.04.13 - klo:13.02 »
libav:ssa taitaa olla bugi, joka estää tai keskeyttää kopioinnin joissain tilanteissa. Kokeilin tuoretta, tänään käännettyä staattisesti linkitettyä ffmpeg-binääriä, jolla operaatio onnistui hyvin. Staattiset binäärit ovat aika isoja, mutta sellaisen käyttö on paljon turvallisempaa kuin järjestelmään asennetun libav:n korvaaminen toisella versiolla.

Staattisesti käännetyn ffmpegin (Linuxille, 32- ja 64-bittisinä x86-binääreinä) voi ladata täältä: http://ffmpeg.gusari.org/static/

Katsomon videota kopioidessa ffmpeg valittaa, että AAC-ääni on väärässä muodossa, jolloin komentoriville pitää lisätä parametri -absf aac_adtstoasc (tai avconv-yhteensopivassa muodossa -bsf:a aac_adtstoasc)

ajaaskel

  • Palvelimen ylläpitäjä
  • Käyttäjä
  • Viestejä: 3383
    • Profiili
Vs: Katsomon nauhoitus
« Vastaus #18 : 04.04.13 - klo:14.18 »
Mainiota, kokeilin täällä tuoreimman 32 bittisen stattisen ffmpeg: in ja tuohan teki tehtävänsä kuten pitääkin kun käyttää mainitsemaasi lisämääritystä.  Muutan tuon Katsomon nauhoituksen käyttämään tuota.  Hetkinen... (=kahvia ensin)   
Autamme ilolla ja ilmaiseksi omalla ajallamme.  Ethän vaadi, uhoa tai isottele näin saamasi palvelun johdosta.

salai

  • Käyttäjä
  • Viestejä: 2118
    • Profiili
Vs: Katsomon nauhoitus
« Vastaus #19 : 04.04.13 - klo:22.11 »
Sattumoisin törmäsin tuohon samaan staattiseen ffmpegiin pari päivää sitten, kun kokeilin saada Areenan tekstitystä oikein minidlna:n virtautuspalvelimella. Mitenkään en saanut toimimaan aikaisemmilla mencoder-komennoilla (esim.) videon skrollausta.

Homma toimi poistamalla sekä ffmpeg, avconv ja mencoder ja kopioimalla edellä mainittu staattinen ffmpeg kansioon /usr/local/bin.

Esim. komennolla:
Koodia: [Valitse]
ffmpeg -y -i input.flv -acodec libmp3lame -vcodec h264 -preset ultrafast  -vf subtitles=input.srt output.mp4toimii minidlna:n videoiden selaus Areenan kovatekstitetyillä videoillakin oikein. Äänen libmp3lame-optiota piti käyttää, että myös Nokian N8 toistaa äänen.

Täytyy testata lisää, että saa pois fontconfig-virheilmoituksen ja käyttöön libass:in fonttien ulkoasun laajemmat määrittelyt.

EDIT: Lähde kokeiluihin taisi olla tuo: How to burn subtitles into the video – FFmpeg
« Viimeksi muokattu: 04.04.13 - klo:22.59 kirjoittanut salai »