Kirjoittaja Aihe: MOV (Quicktime) -> Mpeg [Ratkaistu]  (Luettu 3649 kertaa)

Juhhe1

  • Käyttäjä
  • Viestejä: 1062
    • Profiili
    • Valokuva albumini
MOV (Quicktime) -> Mpeg [Ratkaistu]
« : 15.12.05 - klo:19.26 »
Millä ohjelmalla saisin konvertoitua MOV videon Mpeg:ksi?
Koitin $ ffmpeg -i pict1058.mov -target pal-svcd testi.mpg tuollaisella, mutta se konvertoi kuvan hyvin muttei ottanut ääntä lainkaan mukaan.
Eli nuo videon pätkät on digikameralla otettuja ja pitäisi saada konvertoitua niitä SVCD levylle sopivaksi.

EDIT: Tälläistä ffmpeg tulostaa kun konvertoi

$ ffmpeg -i pict1058.mov -target pal-vcd testi.mpg
ffmpeg version CVS, build 3276800, Copyright (c) 2000-2004 Fabrice Bellard
  configuration:  --build i486-linux-gnu --enable-gpl --enable-pp --enable-zlib --enable-vorbis --enable-libogg --enable-theora --enable-a52 --enable-dts --enable-dc1394 --enable-libgsm --disable-debug --prefix=/usr
  built on Sep 29 2005 03:25:16, gcc: 4.0.2 20050808 (prerelease) (Ubuntu 4.0.1-4ubuntu8)
Input #0, mov,mp4,m4a,3gp,3g2, from 'pict1058.mov':
  Duration: 00:00:23.7, start: 0.000000, bitrate: 8353 kb/s
  Stream #0.0: Video: mjpeg, yuvj422p, 640x480, 600.00 fps
  Stream #0.1: Audio: pcm_u8, 7875 Hz, mono, 63 kb/s
File 'testi.mpg' already exists. Overwrite ? [y/N] y
Output #0, vcd, to 'testi.mpg':
  Stream #0.0: Video: mpeg1video, yuv420p, 352x288, 25.00 fps, q=2-31, 1150 kb/s  Stream #0.1: Audio: mp2, 44100 Hz, mono, 224 kb/s
Stream mapping:
  Stream #0.0 -> #0.0
  Stream #0.1 -> #0.1
Press [q] to stop encoding
[mpeg1video @ 0x8333448]rc buffer underflow
[mpeg1video @ 0x8333448]rc buffer underflow
frame=  595 q=0.0 Lsize=    4067kB time=23.7 bitrate=1403.1kbits/s
video:3364kB audio:649kB global headers:0kB muxing overhead 1.345602%

Eli tosta nyt ainakin selviää että audio on alkuperäisessä pcm_u8 muodossa.
« Viimeksi muokattu: 23.12.05 - klo:15.09 kirjoittanut Juhhe1 »

Tlp-WS (Workstation) - .:Ubuntu 10.10:.
Xenophobic (Laptop) - .:Ubuntu 10.04:.
Xenophobic-II (Laptop) - .:Ubuntu 10.10:.
TlpEEE (Asus EEE) - .:Crunchbang 10 Statle

juyli

  • Vieras
Re: MOV (Quicktime) -> Mpeg
« Vastaus #1 : 15.12.05 - klo:22.38 »
Millä ohjelmalla saisin konvertoitua MOV videon Mpeg:ksi?

mplayer ja sitten ffmpeg.
Ehkä idea löytyy http://users.tkk.fi/~mlinnosk/dvd_rip/dvdcopy_howto.html

Juhhe1

  • Käyttäjä
  • Viestejä: 1062
    • Profiili
    • Valokuva albumini
Re: MOV (Quicktime) -> Mpeg
« Vastaus #2 : 23.12.05 - klo:15.08 »
Homma ratkesi niin että asensin automatix:lla tuon Avidemux softan.
Tuo on todella helppokäyttöinenkin, avaa vaan MOV pätkän ja valitsee SVCD niin se laittaa asetukset automaattisesti kohdalleen :)

Tlp-WS (Workstation) - .:Ubuntu 10.10:.
Xenophobic (Laptop) - .:Ubuntu 10.04:.
Xenophobic-II (Laptop) - .:Ubuntu 10.10:.
TlpEEE (Asus EEE) - .:Crunchbang 10 Statle